Go Back   FileForums > Game Backup > SEGA > DC Games

Reply
 
Thread Tools Display Modes
  #1  
Old 15-11-2000, 22:39
BIG PAPA BIG PAPA is offline
Senior Member
 
Join Date: Nov 2000
Posts: 205
Thanks: 0
Thanked 1 Time in 1 Post
BIG PAPA
!!!!! BAD IMAGE FILE SOLUTIONS PART 2!!!!!!!

"THE GAME BURNS AND I'M USING GOOD MEDIA...NOW WHAT"??

OK now we get into something else....you have followed everything above and still no luck, now it's time to look at the image file itself..
you will need all the rar files to the game, open winrar and goto the directory with the game files. you are going to repair each one, because sometimes when you download files the strans of the filees get messed up, so we are going to try to get the right.
click on the first file of the game and hit the "repair" button at the top you will then be asked if you want to treat it as a rar or zip, choose rar, it will then do its thing and when done goto the next file..hit the second file and then "repair", pick as rar...then you will be ask something else
winrar saves repaired files as "_reconst.rar" so when you do file 2 it whants to call it the same thing, choose to rename the file and change it to "_reconst.002", and "_reconst.003" for the third one and so on...
once you are done, you have to move all the old files to a new directory, so make a folder inside the folder you are in and call it "damaged", move the old files in the "damaged" folder.
now, to make things easy goto one of the old files "right" click on it and choose "rename", i want you to highlight the name of the file WITHOUT the extension and hit "ctrl and c", this will copy the name.
you now have to go back and rename each file to it's original name, if you copied the name like i said then all you have to do is "right click" on the repaired rar hit "rename" hit ctrl and v , this will put the file name in, now all you have to do is put the right extension on..thats why i told you to keep the same extension number on the end of each repaired rar.
once you have renamed them all to their original names un rar the game again and try burning it at no more than 4x...with any luck it should work...
i hope...


!!!!! CDRWIN CUE SHEETS WONT LOAD!!!!!
many times when you download a game the cue sheet gets messed up so....
if you download a game cue/bin and try to load the cue sheet and the cue sheet wont load
look at the error and see what's wrong
if it says "can't open bin"
then open your "note pad"...(start, programs,accessories, ..notepad)
goto file hit "open" goto the directory where the cue and bin are..( make sure you set it to show "all files"
click on the cue sheet and open it..

you should see something like this:
FILE "D:\GAME IMAGES\DINO2.BIN" BINARY
TRACK 01 MODE2/2352
INDEX 01 00:00:00
TRACK 02 AUDIO
PREGAP 00:02:00
INDEX 01 44:45:18
make sure the file path and names are correct, the most common one i see is this:..(if you notice the extension got changed to ".bin.bin")


FILE "D:\GAME IMAGES\DINO2.BIN.BIN" BINARY
TRACK 01 MODE2/2352
INDEX 01 00:00:00
TRACK 02 AUDIO
PREGAP 00:02:00
INDEX 01 44:45:18
all you have to do is erase the .BIN on the end and save it....
now try loading that cue sheet again...and i bet it will work....

DONE FOR YOU BY
BIG PAPA CERVANTES
THEGAMEGOD7
__________________
gather around children....BIG PAPA \nhas a story to tell...
Reply With Quote
Sponsored Links
  #2  
Old 15-11-2000, 23:55
BIG PAPA BIG PAPA is offline
Senior Member
 
Join Date: Nov 2000
Posts: 205
Thanks: 0
Thanked 1 Time in 1 Post
BIG PAPA
SOMETHING I FORGOT TO MENTION WAS....
if you manage to get the game to work you should burn all the rar files to a cd...that way you alway have a source for the game incase yours gets messed up, but more important is...you may find a ftp that doesn't have that game..so now you have something to upload them, to get past the ratio...
__________________
gather around children....BIG PAPA \nhas a story to tell...
Reply With Quote
  #3  
Old 16-11-2000, 16:55
BIG PAPA BIG PAPA is offline
Senior Member
 
Join Date: Nov 2000
Posts: 205
Thanks: 0
Thanked 1 Time in 1 Post
BIG PAPA
what's the deal guys....i see a lot of you read this, so why aren't there any replies???
__________________
gather around children....BIG PAPA \nhas a story to tell...
Reply With Quote
  #4  
Old 17-11-2000, 19:14
BIG PAPA BIG PAPA is offline
Senior Member
 
Join Date: Nov 2000
Posts: 205
Thanks: 0
Thanked 1 Time in 1 Post
BIG PAPA
this is for you guys..not me
please post replies so i know this stuff is helping you...
__________________
gather around children....BIG PAPA \nhas a story to tell...
Reply With Quote
  #5  
Old 18-11-2000, 11:25
BIG PAPA BIG PAPA is offline
Senior Member
 
Join Date: Nov 2000
Posts: 205
Thanks: 0
Thanked 1 Time in 1 Post
BIG PAPA
......
__________________
gather around children....BIG PAPA \nhas a story to tell...
Reply With Quote
  #6  
Old 18-11-2000, 11:35
gtk_8 gtk_8 is offline
Member
 
Join Date: Nov 2000
Posts: 32
Thanks: 0
Thanked 0 Times in 0 Posts
gtk_8
nevermind
Reply With Quote
  #7  
Old 20-11-2000, 00:48
BIG PAPA BIG PAPA is offline
Senior Member
 
Join Date: Nov 2000
Posts: 205
Thanks: 0
Thanked 1 Time in 1 Post
BIG PAPA
....
__________________
gather around children....BIG PAPA \nhas a story to tell...
Reply With Quote
  #8  
Old 05-11-2002, 03:15
handyman156 handyman156 is offline
Junior Member
 
Join Date: Apr 2002
Posts: 18
Thanks: 0
Thanked 0 Times in 0 Posts
handyman156
bin and cue files.

is this the same for the bin files ??


i created a cue from cd mage because the cuefile didnt work,


when i loaded the cuefile and burned it, it had the disk running time at 70 minuts, when i looked at the disk theres nothing there ????????



how do i burn it with cdrwin ??
i loaded cuefile and burned.
Reply With Quote
  #9  
Old 05-11-2002, 03:48
Megalexxx Megalexxx is offline
Die Hard Member
 
Join Date: Mar 2002
Posts: 1,037
Thanks: 0
Thanked 5 Times in 2 Posts
Megalexxx is on a distinguished road
If there's no CDDA (wav files) to burn, try to open directly the bin file with CDRWin (not the cue file).
Reply With Quote
Reply

Thread Tools
Display Modes

Posting Rules
You may not post new threads
You may not post replies
You may not post attachments
You may not edit your posts

BB code is On
Smilies are On
[IMG] code is On
HTML code is Off

Forum Jump



All times are GMT -7. The time now is 16:51.


Powered by vBulletin® Version 3.8.11
Copyright ©2000 - 2022, vBulletin Solutions Inc.
Copyright 2000-2020, FileForums @ https://fileforums.com